<?xml version="1.0" standalone="no"?>
<!DOCTYPE svg PUBLIC "-//W3C//DTD SVG 1.1//EN" "http://www.w3.org/Graphics/SVG/1.1/DTD/svg11.dtd">
<svg xmlns="http://www.w3.org/2000/svg">
<metadata>Generated by Fontastic.me</metadata>
<defs>
<font id="dl-icon" horiz-adv-x="512">
<font-face font-family="dl-icon" units-per-em="512" ascent="480" descent="-32"/>
<missing-glyph horiz-adv-x="512" />

<glyph glyph-name="heart" unicode="&#97;" d="M372 512c-48 0-91-25-116-62-25 37-68 62-116 62-77 0-140-63-140-140 0-139 256-349 256-349 0 0 256 210 256 349 0 77-63 140-140 140z"/>
<glyph glyph-name="search1" unicode="&#98;" d="M407 150c28 38 46 85 46 136 0 124-102 226-227 226-125 0-226-102-226-226 0-125 102-227 226-227 51 0 98 18 136 46l95-96c7-6 15-9 23-9 8 0 16 3 23 9 12 13 12 33 0 46z m-181-27c-89 0-162 73-162 163 0 89 73 162 162 162 90 0 163-73 163-162 0-90-73-163-163-163z"/>
<glyph glyph-name="cart1" unicode="&#99;" d="M64 192c0-18 14-32 32-32l320 0c14 0 27 9 31 23l64 224c2 10 0 20-6 28-6 8-15 13-25 13l-352 0 0 32c0 18-14 32-32 32l-96 0 0-64 64 0z m64 192l310 0-46-160-264 0z m32-320c0-35-29-64-64-64-35 0-64 29-64 64 0 35 29 64 64 64 35 0 64-29 64-64z m320 0c0-35-29-64-64-64-35 0-64 29-64 64 0 35 29 64 64 64 35 0 64-29 64-64z"/>
<glyph glyph-name="menu1" unicode="&#100;" d="M32 224l224 0c18 0 32 14 32 32 0 18-14 32-32 32l-224 0c-18 0-32-14-32-32 0-18 14-32 32-32z m448 256l-448 0c-18 0-32-14-32-32 0-18 14-32 32-32l448 0c18 0 32 14 32 32 0 18-14 32-32 32z m0-384l-448 0c-18 0-32-14-32-32 0-18 14-32 32-32l448 0c18 0 32 14 32 32 0 18-14 32-32 32z"/>
<glyph glyph-name="heart2" unicode="&#101;" d="M363 512c-41 0-79-16-107-45-28 29-66 45-107 45-82 0-149-67-149-149 0-137 233-329 242-337l14-11 14 11c9 8 242 200 242 337 0 82-67 149-149 149z m-107-441c-70 60-213 201-213 292 0 58 48 106 106 106 36 0 69-18 89-47l18-27 18 27c20 29 53 47 89 47 58 0 106-48 106-106 0-91-143-232-213-292z"/>
<glyph glyph-name="compare1" unicode="&#102;" d="M157 453l-93-93 0 91-64 0 0-192 192 0 0 64-75 0 85 85c54 54 149 54 203 0l46 45c-79 79-216 79-294 0z m163-198l0-64 75 0-85-85c-54-54-149-54-203 0l-46-45c40-39 92-61 147-61 56 0 108 22 147 61l93 93 0-91 64 0 0 192z"/>
<glyph glyph-name="compare2" unicode="&#103;" d="M448 256l0-32c0-18-14-32-32-32l-224 0 0 64-128-96 128-96 0 64 224 0c53 0 96 43 96 96l0 32z m-384 32c0 18 14 32 32 32l224 0 0-64 128 96-128 96 0-64-224 0c-53 0-96-43-96-96l0-32 64 0z"/>
<glyph glyph-name="compare3" unicode="&#104;" d="M448 224c0-18-14-32-32-32l-288 0 0 64-128-96 128-96 0 64 288 0c53 0 96 43 96 96z m-352 96l288 0 0-64 128 96-128 96 0-64-288 0c-53 0-96-43-96-96l64 0c0 18 14 32 32 32z"/>
<glyph glyph-name="compare4" unicode="&#105;" d="M64 184l0-48c0-4 4-8 8-8l248 0 0-64 128 96-128 96 0-64-248 0c-4 0-8-4-8-8z m384 144l0 48c0 4-4 8-8 8l-248 0 0 64-128-96 128-96 0 64 248 0c4 0 8 4 8 8z"/>
<glyph glyph-name="menu2" unicode="&#106;" d="M0 277l512 0 0-42-512 0z m0 150l512 0 0-43-512 0z m0-299l277 0 0-43-277 0z"/>
<glyph glyph-name="cart2" unicode="&#107;" d="M480 416l-64 0 0 64-64 0 0-64-64 0 0-64 64 0 0-64 64 0 0 64 64 0z m-416-224c0-18 14-32 32-32l352 0 0 64-320 0 0 256c0 18-14 32-32 32l-96 0 0-64 64 0z m96-128c0-35-29-64-64-64-35 0-64 29-64 64 0 35 29 64 64 64 35 0 64-29 64-64z m320 0c0-35-29-64-64-64-35 0-64 29-64 64 0 35 29 64 64 64 35 0 64-29 64-64z"/>
<glyph glyph-name="search3" unicode="&#108;" d="M256 384l-64 0 0-64-64 0 0-64 64 0 0-64 64 0 0 64 64 0 0 64-64 0z m245-305l-88 88c22 35 35 77 35 121 0 124-100 224-224 224-124 0-224-100-224-224 0-124 100-224 224-224 44 0 86 13 121 35l88-88c6-6 16-6 22 0l46 46c6 6 6 16 0 22m-277 49c-88 0-160 72-160 160 0 88 72 160 160 160 88 0 160-72 160-160 0-88-72-160-160-160"/>
<glyph glyph-name="search2" unicode="&#109;" d="M501 79l-88 88c22 35 35 77 35 121 0 124-100 224-224 224-124 0-224-100-224-224 0-124 100-224 224-224 44 0 86 13 121 35l88-88c6-6 16-6 22 0l46 46c6 6 6 16 0 22m-277 49c-88 0-160 72-160 160 0 88 72 160 160 160 88 0 160-72 160-160 0-88-72-160-160-160"/>
<glyph glyph-name="close" unicode="&#110;" d="M405 435l-149-149-149 149-30-30 149-149-149-149 30-31 149 150 149-150 31 31-150 149 150 149z"/>
<glyph glyph-name="clock" unicode="&#111;" d="M256 512c-141 0-256-115-256-256 0-141 115-256 256-256 141 0 256 115 256 256 0 141-115 256-256 256z m0-480c-124 0-224 100-224 224 0 124 100 224 224 224 124 0 224-100 224-224 0-124-100-224-224-224z m112 240l-96 0 0 96c0 9-7 16-16 16-9 0-16-7-16-16l0-112c0-9 7-16 16-16l112 0c9 0 16 7 16 16 0 9-7 16-16 16z"/>
<glyph glyph-name="stats1" unicode="&#112;" d="M496 64l-480 0c-9 0-16-7-16-16 0-9 7-16 16-16l480 0c9 0 16 7 16 16 0 9-7 16-16 16z m-464 272c-9 0-16-7-16-16l0-208c0-9 7-16 16-16l96 0c9 0 16 7 16 16l0 208c0 9-7 16-16 16z m80-208l-64 0 0 176 64 0z m96-32l96 0c9 0 16 7 16 16l0 352c0 9-7 16-16 16l-96 0c-9 0-16-7-16-16l0-352c0-9 7-16 16-16z m16 352l64 0 0-320-64 0z m160-352l96 0c9 0 16 7 16 16l0 128c0 9-7 16-16 16l-96 0c-9 0-16-7-16-16l0-128c0-9 7-16 16-16z m16 128l64 0 0-96-64 0z"/>
<glyph glyph-name="search4" unicode="&#113;" d="M208 512c-115 0-208-93-208-208 0-115 93-208 208-208 52 0 99 19 135 50l126-125c3-3 7-5 11-5 4 0 8 2 11 5 7 6 7 16 0 22l-125 126c31 36 50 83 50 135 0 115-93 208-208 208z m-176-208c0 97 79 176 176 176 97 0 176-79 176-176 0-97-79-176-176-176-97 0-176 79-176 176z"/>
<glyph glyph-name="search5" unicode="&#114;" d="M208 512c-115 0-208-93-208-208 0-115 93-208 208-208 52 0 99 19 135 50l126-125c3-3 7-5 11-5 4 0 8 2 11 5 7 6 7 16 0 22l-125 126c31 36 50 83 50 135 0 115-93 208-208 208z m-176-208c0 97 79 176 176 176 97 0 176-79 176-176 0-97-79-176-176-176-97 0-176 79-176 176z m240 16l-48 0 0 48c0 9-7 16-16 16-9 0-16-7-16-16l0-48-48 0c-9 0-16-7-16-16 0-9 7-16 16-16l48 0 0-48c0-9 7-16 16-16 9 0 16 7 16 16l0 48 48 0c9 0 16 7 16 16 0 9-7 16-16 16z"/>
<glyph glyph-name="search6" unicode="&#115;" d="M208 512c-115 0-208-93-208-208 0-115 93-208 208-208 52 0 99 19 135 50l126-125c3-3 7-5 11-5 4 0 8 2 11 5 7 6 7 16 0 22l-125 126c31 36 50 83 50 135 0 115-93 208-208 208z m-176-208c0 97 79 176 176 176 97 0 176-79 176-176 0-97-79-176-176-176-97 0-176 79-176 176z m240 16l-128 0c-9 0-16-7-16-16 0-9 7-16 16-16l128 0c9 0 16 7 16 16 0 9-7 16-16 16z"/>
<glyph glyph-name="search7" unicode="&#116;" d="M395 139c-6 7-16 7-22 0-7-6-7-16 0-22l96-96c3-3 7-5 11-5 4 0 8 2 11 5 7 6 7 16 0 22z m-187-43c115 0 208 93 208 208 0 115-93 208-208 208-115 0-208-93-208-208 0-115 93-208 208-208z m0 384c97 0 176-79 176-176 0-97-79-176-176-176-97 0-176 79-176 176 0 97 79 176 176 176z m-64-192l48 0 0-48c0-9 7-16 16-16 9 0 16 7 16 16l0 48 48 0c9 0 16 7 16 16 0 9-7 16-16 16l-48 0 0 48c0 9-7 16-16 16-9 0-16-7-16-16l0-48-48 0c-9 0-16-7-16-16 0-9 7-16 16-16z"/>
<glyph glyph-name="search8" unicode="&#117;" d="M491 43l-96 96c-6 7-16 7-22 0-7-6-7-16 0-22l96-96c3-3 7-5 11-5 4 0 8 2 11 5 7 6 7 16 0 22z m-491 261c0-115 93-208 208-208 115 0 208 93 208 208 0 115-93 208-208 208-115 0-208-93-208-208z m208 176c97 0 176-79 176-176 0-97-79-176-176-176-97 0-176 79-176 176 0 97 79 176 176 176z m-64-192l128 0c9 0 16 7 16 16 0 9-7 16-16 16l-128 0c-9 0-16-7-16-16 0-9 7-16 16-16z"/>
<glyph glyph-name="search9" unicode="&#118;" d="M491 21c7 6 7 16 0 22l-96 96c-6 7-16 7-22 0-7-6-7-16 0-22l96-96c3-3 7-5 11-5 4 0 8 2 11 5z m-283 75c115 0 208 93 208 208 0 115-93 208-208 208-115 0-208-93-208-208 0-115 93-208 208-208z m0 384c97 0 176-79 176-176 0-97-79-176-176-176-97 0-176 79-176 176 0 97 79 176 176 176z m-108-148c10 39 41 70 80 80 9 3 14 11 12 20-3 8-11 14-20 11-51-13-90-52-103-103-3-9 2-17 11-19 1-1 3-1 4-1 7 0 14 5 16 12z"/>
<glyph glyph-name="comment1" unicode="&#119;" d="M496 480l-480 0c-9 0-16-7-16-16l0-320c0-9 7-16 16-16l152 0 76-90c3-4 7-6 12-6 5 0 9 2 12 6l76 90 152 0c9 0 16 7 16 16l0 320c0 9-7 16-16 16z m-16-320l-144 0c-5 0-9-2-12-6l-68-81-68 81c-3 4-7 6-12 6l-144 0 0 288 448 0z m-352 176l256 0c9 0 16 7 16 16 0 9-7 16-16 16l-256 0c-9 0-16-7-16-16 0-9 7-16 16-16z m0-96l144 0c9 0 16 7 16 16 0 9-7 16-16 16l-144 0c-9 0-16-7-16-16 0-9 7-16 16-16z"/>
<glyph glyph-name="cart3" unicode="&#120;" d="M16 480l48 0 0-304c0-9 7-16 16-16l400 0c9 0 16 7 16 16 0 9-7 16-16 16l-384 0 0 32 304 0c7 0 14 5 16 12l48 192c1 5 0 10-3 14-3 4-8 6-13 6l-352 0 0 48c0 9-7 16-16 16l-64 0c-9 0-16-7-16-16 0-9 7-16 16-16z m412-64l-40-160-292 0 0 160z m-252-352c0 35-29 64-64 64-35 0-64-29-64-64 0-35 29-64 64-64 35 0 64 29 64 64z m-96 0c0 18 14 32 32 32 18 0 32-14 32-32 0-18-14-32-32-32-18 0-32 14-32 32z m368 64c-35 0-64-29-64-64 0-35 29-64 64-64 35 0 64 29 64 64 0 35-29 64-64 64z m0-96c-18 0-32 14-32 32 0 18 14 32 32 32 18 0 32-14 32-32 0-18-14-32-32-32z"/>
<glyph glyph-name="cart4" unicode="&#121;" d="M464 16l0 384c0 9-7 16-16 16l-96 0c0 53-43 96-96 96-53 0-96-43-96-96l-96 0c-9 0-16-7-16-16l0-384c0-9 7-16 16-16l384 0c9 0 16 7 16 16z m-208 464c35 0 64-29 64-64l-128 0c0 35 29 64 64 64z m176-448l-352 0 0 352 80 0 0-64c0-9 7-16 16-16 9 0 16 7 16 16l0 64 128 0 0-64c0-9 7-16 16-16 9 0 16 7 16 16l0 64 80 0z"/>
<glyph glyph-name="cart5" unicode="&#122;" d="M416 416l-96 0c0 53-43 96-96 96-53 0-96-43-96-96l-96 0c-9 0-16-7-16-16l0-384c0-9 7-16 16-16l352 0c62 0 112 50 112 112 0 45-26 83-64 101l0 187c0 9-7 16-16 16z m-192 64c35 0 64-29 64-64l-128 0c0 35 29 64 64 64z m-176-448l0 352 80 0 0-64c0-9 7-16 16-16 9 0 16 7 16 16l0 64 128 0 0-64c0-9 7-16 16-16 9 0 16 7 16 16l0 64 80 0 0-161c-5 0-11 1-16 1-62 0-112-50-112-112 0-31 13-60 34-80z m416 80c0-44-36-80-80-80-44 0-80 36-80 80 0 44 36 80 80 80 44 0 80-36 80-80z m-96 32l0-16-16 0c-9 0-16-7-16-16 0-9 7-16 16-16l16 0 0-16c0-9 7-16 16-16 9 0 16 7 16 16l0 16 16 0c9 0 16 7 16 16 0 9-7 16-16 16l-16 0 0 16c0 9-7 16-16 16-9 0-16-7-16-16z"/>
<glyph glyph-name="cart6" unicode="&#65;" d="M416 416l-96 0c0 53-43 96-96 96-53 0-96-43-96-96l-96 0c-9 0-16-7-16-16l0-384c0-9 7-16 16-16l352 0c62 0 112 50 112 112 0 45-26 83-64 101l0 187c0 9-7 16-16 16z m-192 64c35 0 64-29 64-64l-128 0c0 35 29 64 64 64z m-176-448l0 352 80 0 0-64c0-9 7-16 16-16 9 0 16 7 16 16l0 64 128 0 0-64c0-9 7-16 16-16 9 0 16 7 16 16l0 64 80 0 0-161c-5 0-11 1-16 1-62 0-112-50-112-112 0-31 13-60 34-80z m416 80c0-44-36-80-80-80-44 0-80 36-80 80 0 44 36 80 80 80 44 0 80-36 80-80z m-128 0c0-9 7-16 16-16l64 0c9 0 16 7 16 16 0 9-7 16-16 16l-64 0c-9 0-16-7-16-16z"/>
<glyph glyph-name="cart7" unicode="&#66;" d="M438 217l-22 153c-1 8-8 14-16 14l-64 0 0 32c0 54-42 96-96 96-54 0-96-42-96-96l0-32-64 0c-8 0-15-6-16-14l-48-352c0-4 1-9 4-13 3-3 7-5 12-5l368 0c62 0 112 50 112 112 0 48-31 90-74 105z m-262 199c0 36 28 64 64 64 36 0 64-28 64-64l0-32-128 0z m-126-384l44 320 50 0 0-48c0-9 7-16 16-16 9 0 16 7 16 16l0 48 128 0 0-48c0-9 7-16 16-16 9 0 16 7 16 16l0 48 50 0 19-128c-2 0-3 0-5 0-62 0-112-50-112-112 0-31 13-60 34-80z m350 0c-44 0-80 36-80 80 0 44 36 80 80 80 44 0 80-36 80-80 0-44-36-80-80-80z m32 96l-16 0 0 16c0 9-7 16-16 16-9 0-16-7-16-16l0-16-16 0c-9 0-16-7-16-16 0-9 7-16 16-16l16 0 0-16c0-9 7-16 16-16 9 0 16 7 16 16l0 16 16 0c9 0 16 7 16 16 0 9-7 16-16 16z"/>
<glyph glyph-name="cart8" unicode="&#67;" d="M16 0l384 0c9 0 16 7 16 16l0 64c0 9-7 16-16 16-9 0-16-7-16-16l0-48-352 0 0 352 80 0 0-32c0-9 7-16 16-16 9 0 16 7 16 16l0 32 128 0 0-32c0-9 7-16 16-16 9 0 16 7 16 16l0 32 80 0 0-105-91-92c-3-3-5-7-5-11l0-48c0-9 7-16 16-16l48 0c4 0 8 2 11 5l128 128c7 6 7 16 0 22l-48 48c-6 7-16 7-22 0l-5-4 0 89c0 9-7 16-16 16l-96 0c0 53-43 96-96 96-53 0-96-43-96-96l-96 0c-9 0-16-7-16-16l0-384c0-9 7-16 16-16z m416 281l25-25-112-112-25 0 0 25 91 92c0 0 0 0 0 0z m-224 199c35 0 64-29 64-64l-128 0c0 35 29 64 64 64z"/>
<glyph glyph-name="cart9" unicode="&#68;" d="M438 217l-22 153c-1 8-8 14-16 14l-64 0 0 32c0 54-42 96-96 96-54 0-96-42-96-96l0-32-64 0c-8 0-15-6-16-14l-48-352c0-4 1-9 4-13 3-3 7-5 12-5l368 0c62 0 112 50 112 112 0 48-31 90-74 105z m-262 199c0 36 28 64 64 64 36 0 64-28 64-64l0-32-128 0z m-126-384l44 320 50 0 0-48c0-9 7-16 16-16 9 0 16 7 16 16l0 48 128 0 0-48c0-9 7-16 16-16 9 0 16 7 16 16l0 48 50 0 19-128c-2 0-3 0-5 0-62 0-112-50-112-112 0-31 13-60 34-80z m350 0c-44 0-80 36-80 80 0 44 36 80 80 80 44 0 80-36 80-80 0-44-36-80-80-80z m32 96l-64 0c-9 0-16-7-16-16 0-9 7-16 16-16l64 0c9 0 16 7 16 16 0 9-7 16-16 16z"/>
<glyph glyph-name="cart10" unicode="&#69;" d="M496 368l-86 0-74 136c-5 7-14 10-22 6-8-4-11-14-6-22l65-120-234 0 65 120c5 8 2 18-6 22-8 4-17 1-22-6l-74-136-86 0c-9 0-16-7-16-16l0-80c0-9 7-16 16-16l32 0 0-240c0-9 7-16 16-16l336 0c62 0 112 50 112 112 0 38-19 72-48 92l0 52 32 0c9 0 16 7 16 16l0 80c0 9-7 16-16 16z m-16-256c0-44-36-80-80-80-44 0-80 36-80 80 0 44 36 80 80 80 44 0 80-36 80-80z m-48 107c-10 3-21 5-32 5-62 0-112-50-112-112 0-31 13-60 34-80l-242 0 0 224 352 0z m48 69l-448 0 0 48 448 0z m-48-160l-16 0 0 16c0 9-7 16-16 16-9 0-16-7-16-16l0-16-16 0c-9 0-16-7-16-16 0-9 7-16 16-16l16 0 0-16c0-9 7-16 16-16 9 0 16 7 16 16l0 16 16 0c9 0 16 7 16 16 0 9-7 16-16 16z"/>
<glyph glyph-name="cart11" unicode="&#70;" d="M496 368l-86 0-74 136c-5 7-14 10-22 6-8-4-11-14-6-22l65-120-234 0 65 120c5 8 2 18-6 22-8 4-17 1-22-6l-74-136-86 0c-9 0-16-7-16-16l0-80c0-9 7-16 16-16l32 0 0-240c0-9 7-16 16-16l192 0c9 0 16 7 16 16 0 9-7 16-16 16l-176 0 0 224 352 0 0-32c0-9 7-16 16-16 9 0 16 7 16 16l0 32 32 0c9 0 16 7 16 16l0 80c0 9-7 16-16 16z m-16-80l-448 0 0 48 448 0z m-96-288c4 0 8 2 11 5l96 96c7 6 7 16 0 22l-48 48c-6 7-16 7-22 0l-96-96c-3-3-5-7-5-11l0-48c0-9 7-16 16-16z m-32 57l80 80 25-25-80-80-25 0z"/>
<glyph glyph-name="cart12" unicode="&#71;" d="M496 368l-86 0-74 136c-5 7-14 10-22 6-8-4-11-14-6-22l65-120-234 0 65 120c5 8 2 18-6 22-8 4-17 1-22-6l-74-136-86 0c-9 0-16-7-16-16l0-80c0-9 7-16 16-16l32 0 0-240c0-9 7-16 16-16l336 0c62 0 112 50 112 112 0 38-19 72-48 92l0 52 32 0c9 0 16 7 16 16l0 80c0 9-7 16-16 16z m-16-256c0-44-36-80-80-80-44 0-80 36-80 80 0 44 36 80 80 80 44 0 80-36 80-80z m-48 107c-10 3-21 5-32 5-62 0-112-50-112-112 0-31 13-60 34-80l-242 0 0 224 352 0z m48 69l-448 0 0 48 448 0z m-48-160l-64 0c-9 0-16-7-16-16 0-9 7-16 16-16l64 0c9 0 16 7 16 16 0 9-7 16-16 16z"/>
<glyph glyph-name="cart13" unicode="&#72;" d="M496 368l-87 0-92 137c-5 7-15 9-22 4-7-5-9-15-4-22l79-119-228 0 79 119c5 7 3 17-4 22-7 5-17 3-22-4l-92-137-87 0c-9 0-16-7-16-16 0-9 7-16 16-16l480 0c9 0 16 7 16 16 0 9-7 16-16 16z m-43-157l11 75c1 8-5 17-14 18-9 1-17-5-18-14l-10-68c-7 1-14 2-22 2-62 0-112-50-112-112 0-11 2-22 5-32l-183 0-30 210c-1 9-10 15-18 14-9-1-15-10-14-18l32-224c1-8 8-14 16-14l212 0c20-29 54-48 92-48 62 0 112 50 112 112 0 43-24 80-59 99z m-53-179c-44 0-80 36-80 80 0 44 36 80 80 80 44 0 80-36 80-80 0-44-36-80-80-80z m32 96l-16 0 0 16c0 9-7 16-16 16-9 0-16-7-16-16l0-16-16 0c-9 0-16-7-16-16 0-9 7-16 16-16l16 0 0-16c0-9 7-16 16-16 9 0 16 7 16 16l0 16 16 0c9 0 16 7 16 16 0 9-7 16-16 16z"/>
<glyph glyph-name="cart14" unicode="&#73;" d="M496 368l-87 0-92 137c-5 7-15 9-22 4-7-5-9-15-4-22l79-119-228 0 79 119c5 7 3 17-4 22-7 5-17 3-22-4l-92-137-87 0c-9 0-16-7-16-16 0-9 7-16 16-16l480 0c9 0 16 7 16 16 0 9-7 16-16 16z m-43-157l11 75c1 8-5 17-14 18-9 1-17-5-18-14l-10-68c-7 1-14 2-22 2-62 0-112-50-112-112 0-11 2-22 5-32l-183 0-30 210c-1 9-9 15-18 14-9-1-15-10-14-18l32-224c1-8 8-14 16-14l212 0c20-29 54-48 92-48 62 0 112 50 112 112 0 43-24 80-59 99z m-53-179c-44 0-80 36-80 80 0 44 36 80 80 80 44 0 80-36 80-80 0-44-36-80-80-80z m32 96l-64 0c-9 0-16-7-16-16 0-9 7-16 16-16l64 0c9 0 16 7 16 16 0 9-7 16-16 16z"/>
<glyph glyph-name="cart15" unicode="&#74;" d="M96 32l320 0c8 0 15 6 16 14l32 224c1 8-5 17-14 18-8 1-17-5-18-14l-30-210-292 0-30 210c-1 9-9 15-18 14-9-1-15-10-14-18l32-224c1-8 8-14 16-14z m400 320l-87 0-92 137c-5 7-15 9-22 4-7-5-9-15-4-22l79-119-228 0 79 119c5 7 3 17-4 22-7 5-17 3-22-4l-92-137-87 0c-9 0-16-7-16-16 0-9 7-16 16-16l480 0c9 0 16 7 16 16 0 9-7 16-16 16z"/>
<glyph glyph-name="cart16" unicode="&#75;" d="M496 368l-86 0-74 136c-5 7-14 10-22 6-8-4-11-14-7-22l66-120-234 0 66 120c4 8 1 18-7 22-8 4-17 1-21-6l-75-136-86 0c-9 0-16-7-16-16l0-80c0-9 7-16 16-16l32 0 0-240c0-9 7-16 16-16l384 0c9 0 16 7 16 16l0 240 32 0c9 0 16 7 16 16l0 80c0 9-7 16-16 16z m-64-336l-352 0 0 224 352 0z m48 256l-448 0 0 48 448 0z m-224-208c9 0 16 7 16 16l0 96c0 9-7 16-16 16-9 0-16-7-16-16l0-96c0-9 7-16 16-16z m-80 0c9 0 16 7 16 16l0 96c0 9-7 16-16 16-9 0-16-7-16-16l0-96c0-9 7-16 16-16z m160 0c9 0 16 7 16 16l0 96c0 9-7 16-16 16-9 0-16-7-16-16l0-96c0-9 7-16 16-16z"/>
<glyph glyph-name="cart17" unicode="&#76;" d="M144 64c0 35-29 64-64 64-35 0-64-29-64-64 0-35 29-64 64-64 35 0 64 29 64 64z m-96 0c0 18 14 32 32 32 18 0 32-14 32-32 0-18-14-32-32-32-18 0-32 14-32 32z m448 0c0 35-29 64-64 64-35 0-64-29-64-64 0-35 29-64 64-64 35 0 64 29 64 64z m-96 0c0 18 14 32 32 32 18 0 32-14 32-32 0-18-14-32-32-32-18 0-32 14-32 32z m-16 160c6 0 12 4 15 10l23 56c51 11 90 56 90 110 0 62-50 112-112 112-45 0-83-26-101-64l-227 0-43 58c-5 7-16 8-23 3-7-5-8-16-3-23l45-59 0-183-30-61c-3-5-3-11 0-15 3-5 8-8 14-8l464 0c9 0 16 7 16 16 0 9-7 16-16 16l-438 0 16 32z m16 256c44 0 80-36 80-80 0-44-36-80-80-80-44 0-80 36-80 80 0 44 36 80 80 80z m-13-191l-14-33-293 0 0 160 209 0c0-5-1-11-1-16 0-57 43-105 99-111z m-19 95l16 0 0-16c0-9 7-16 16-16 9 0 16 7 16 16l0 16 16 0c9 0 16 7 16 16 0 9-7 16-16 16l-16 0 0 16c0 9-7 16-16 16-9 0-16-7-16-16l0-16-16 0c-9 0-16-7-16-16 0-9 7-16 16-16z"/>
<glyph glyph-name="cart18" unicode="&#77;" d="M400 512c-45 0-83-26-101-64l-203 0 0 48c0 9-7 16-16 16l-64 0c-9 0-16-7-16-16 0-9 7-16 16-16l48 0 0-304c0-9 7-16 16-16l400 0c9 0 16 7 16 16 0 9-7 16-16 16l-384 0 0 32 304 0c7 0 14 5 16 12l14 56c47 13 82 57 82 108 0 62-50 112-112 112z m-304-256l0 160 193 0c0-5-1-11-1-16 0-60 48-109 108-112l-8-32z m304 64c-44 0-80 36-80 80 0 44 36 80 80 80 44 0 80-36 80-80 0-44-36-80-80-80z m32 96l-16 0 0 16c0 9-7 16-16 16-9 0-16-7-16-16l0-16-16 0c-9 0-16-7-16-16 0-9 7-16 16-16l16 0 0-16c0-9 7-16 16-16 9 0 16 7 16 16l0 16 16 0c9 0 16 7 16 16 0 9-7 16-16 16z m-256-352c0 35-29 64-64 64-35 0-64-29-64-64 0-35 29-64 64-64 35 0 64 29 64 64z m-96 0c0 18 14 32 32 32 18 0 32-14 32-32 0-18-14-32-32-32-18 0-32 14-32 32z m368 64c-35 0-64-29-64-64 0-35 29-64 64-64 35 0 64 29 64 64 0 35-29 64-64 64z m0-96c-18 0-32 14-32 32 0 18 14 32 32 32 18 0 32-14 32-32 0-18-14-32-32-32z"/>
<glyph glyph-name="cart19" unicode="&#78;" d="M16 480l48 0 0-304c0-9 7-16 16-16l400 0c9 0 16 7 16 16 0 9-7 16-16 16l-384 0 0 32 304 0c7 0 14 5 16 12l48 192c1 5 0 10-3 14-3 4-8 6-13 6l-128 0c-9 0-16-7-16-16 0-9 7-16 16-16l108 0-40-160-292 0 0 160 96 0c9 0 16 7 16 16 0 9-7 16-16 16l-96 0 0 48c0 9-7 16-16 16l-64 0c-9 0-16-7-16-16 0-9 7-16 16-16z m96-352c-35 0-64-29-64-64 0-35 29-64 64-64 35 0 64 29 64 64 0 35-29 64-64 64z m0-96c-18 0-32 14-32 32 0 18 14 32 32 32 18 0 32-14 32-32 0-18-14-32-32-32z m336 96c-35 0-64-29-64-64 0-35 29-64 64-64 35 0 64 29 64 64 0 35-29 64-64 64z m0-96c-18 0-32 14-32 32 0 18 14 32 32 32 18 0 32-14 32-32 0-18-14-32-32-32z m-245 347c-6 7-16 7-22 0-7-6-7-16 0-22l64-64c1-2 3-3 5-4 2-1 4-1 6-1 2 0 4 0 6 1 2 1 4 2 5 4l64 64c7 6 7 16 0 22-6 7-16 7-22 0l-37-36 0 153c0 9-7 16-16 16-9 0-16-7-16-16l0-153z"/>
<glyph glyph-name="cart20" unicode="&#79;" d="M400 512c-45 0-83-26-101-64l-203 0 0 48c0 9-7 16-16 16l-64 0c-9 0-16-7-16-16 0-9 7-16 16-16l48 0 0-304c0-9 7-16 16-16l400 0c9 0 16 7 16 16 0 9-7 16-16 16l-384 0 0 32 304 0c7 0 14 5 16 12l14 56c47 13 82 57 82 108 0 62-50 112-112 112z m-304-256l0 160 193 0c0-5-1-11-1-16 0-60 48-109 108-112l-8-32z m304 64c-44 0-80 36-80 80 0 44 36 80 80 80 44 0 80-36 80-80 0-44-36-80-80-80z m32 96l-64 0c-9 0-16-7-16-16 0-9 7-16 16-16l64 0c9 0 16 7 16 16 0 9-7 16-16 16z m-256-352c0 35-29 64-64 64-35 0-64-29-64-64 0-35 29-64 64-64 35 0 64 29 64 64z m-96 0c0 18 14 32 32 32 18 0 32-14 32-32 0-18-14-32-32-32-18 0-32 14-32 32z m368 64c-35 0-64-29-64-64 0-35 29-64 64-64 35 0 64 29 64 64 0 35-29 64-64 64z m0-96c-18 0-32 14-32 32 0 18 14 32 32 32 18 0 32-14 32-32 0-18-14-32-32-32z"/>
<glyph glyph-name="cart21" unicode="&#80;" d="M144 64c0 35-29 64-64 64-35 0-64-29-64-64 0-35 29-64 64-64 35 0 64 29 64 64z m-96 0c0 18 14 32 32 32 18 0 32-14 32-32 0-18-14-32-32-32-18 0-32 14-32 32z m448 0c0 35-29 64-64 64-35 0-64-29-64-64 0-35 29-64 64-64 35 0 64 29 64 64z m-96 0c0 18 14 32 32 32 18 0 32-14 32-32 0-18-14-32-32-32-18 0-32 14-32 32z m-16 160c6 0 12 4 15 10l23 56c51 11 90 56 90 110 0 62-50 112-112 112-45 0-83-26-101-64l-227 0-43 58c-5 7-16 8-23 3-7-5-8-16-3-23l45-59 0-183-30-61c-3-5-3-11 0-15 3-5 8-8 14-8l464 0c9 0 16 7 16 16 0 9-7 16-16 16l-438 0 16 32z m16 256c44 0 80-36 80-80 0-44-36-80-80-80-44 0-80 36-80 80 0 44 36 80 80 80z m-13-191l-14-33-293 0 0 160 209 0c0-5-1-11-1-16 0-57 43-105 99-111z m-19 95l64 0c9 0 16 7 16 16 0 9-7 16-16 16l-64 0c-9 0-16-7-16-16 0-9 7-16 16-16z"/>
<glyph glyph-name="cart22" unicode="&#81;" d="M400 512c-51 0-93-34-107-80l-187 0-10 66c-1 8-8 14-16 14l-64 0c-9 0-16-7-16-16 0-9 7-16 16-16l50 0 46-306c1-8 8-14 16-14l320 0c8 0 15 6 16 14l21 153c17 20 27 45 27 73 0 62-50 112-112 112z m34-320l-292 0-31 208 177 0c0-62 50-112 112-112 18 0 34 4 49 11z m-34 128c-44 0-80 36-80 80 0 44 36 80 80 80 44 0 80-36 80-80 0-44-36-80-80-80z m32 96l-16 0 0 16c0 9-7 16-16 16-9 0-16-7-16-16l0-16-16 0c-9 0-16-7-16-16 0-9 7-16 16-16l16 0 0-16c0-9 7-16 16-16 9 0 16 7 16 16l0 16 16 0c9 0 16 7 16 16 0 9-7 16-16 16z m-208-352c0 35-29 64-64 64-35 0-64-29-64-64 0-35 29-64 64-64 35 0 64 29 64 64z m-96 0c0 18 14 32 32 32 18 0 32-14 32-32 0-18-14-32-32-32-18 0-32 14-32 32z m368 0c0 35-29 64-64 64-35 0-64-29-64-64 0-35 29-64 64-64 35 0 64 29 64 64z m-96 0c0 18 14 32 32 32 18 0 32-14 32-32 0-18-14-32-32-32-18 0-32 14-32 32z"/>
<glyph glyph-name="cart23" unicode="&#82;" d="M96 64c0-35 29-64 64-64 35 0 64 29 64 64 0 35-29 64-64 64-35 0-64-29-64-64z m96 0c0-18-14-32-32-32-18 0-32 14-32 32 0 18 14 32 32 32 18 0 32-14 32-32z m240 64c-35 0-64-29-64-64 0-35 29-64 64-64 35 0 64 29 64 64 0 35-29 64-64 64z m0-96c-18 0-32 14-32 32 0 18 14 32 32 32 18 0 32-14 32-32 0-18-14-32-32-32z m-416 448l50 0 46-306c1-8 8-14 16-14l320 0c8 0 15 6 16 14l32 240c0 4-1 9-4 13-3 3-7 5-12 5l-128 0c-9 0-16-7-16-16 0-9 7-16 16-16l110 0-28-208-292 0-31 208 113 0c9 0 16 7 16 16 0 9-7 16-16 16l-118 0-10 66c-1 8-8 14-16 14l-64 0c-9 0-16-7-16-16 0-9 7-16 16-16z m219-149c-6 7-16 7-22 0-7-6-7-16 0-22l64-64c1-2 3-3 5-4 2-1 4-1 6-1 2 0 4 0 6 1 2 1 4 2 5 4l64 64c7 6 7 16 0 22-6 7-16 7-22 0l-37-36 0 185c0 9-7 16-16 16-9 0-16-7-16-16l0-185z"/>
<glyph glyph-name="cart24" unicode="&#83;" d="M400 512c-51 0-93-34-107-80l-187 0-10 66c-1 8-8 14-16 14l-64 0c-9 0-16-7-16-16 0-9 7-16 16-16l50 0 46-306c1-8 8-14 16-14l320 0c8 0 15 6 16 14l21 153c17 20 27 45 27 73 0 62-50 112-112 112z m34-320l-292 0-31 208 177 0c0-62 50-112 112-112 18 0 34 4 49 11z m-34 128c-44 0-80 36-80 80 0 44 36 80 80 80 44 0 80-36 80-80 0-44-36-80-80-80z m32 96l-64 0c-9 0-16-7-16-16 0-9 7-16 16-16l64 0c9 0 16 7 16 16 0 9-7 16-16 16z m-208-352c0 35-29 64-64 64-35 0-64-29-64-64 0-35 29-64 64-64 35 0 64 29 64 64z m-96 0c0 18 14 32 32 32 18 0 32-14 32-32 0-18-14-32-32-32-18 0-32 14-32 32z m368 0c0 35-29 64-64 64-35 0-64-29-64-64 0-35 29-64 64-64 35 0 64 29 64 64z m-96 0c0 18 14 32 32 32 18 0 32-14 32-32 0-18-14-32-32-32-18 0-32 14-32 32z"/>
<glyph glyph-name="cart25" unicode="&#84;" d="M96 64c0-35 29-64 64-64 35 0 64 29 64 64 0 35-29 64-64 64-35 0-64-29-64-64z m96 0c0-18-14-32-32-32-18 0-32 14-32 32 0 18 14 32 32 32 18 0 32-14 32-32z m240 64c-35 0-64-29-64-64 0-35 29-64 64-64 35 0 64 29 64 64 0 35-29 64-64 64z m0-96c-18 0-32 14-32 32 0 18 14 32 32 32 18 0 32-14 32-32 0-18-14-32-32-32z m-416 448l50 0 46-306c1-8 8-14 16-14l320 0c8 0 15 6 16 14l32 240c0 4-1 9-4 13-3 3-7 5-12 5l-374 0-10 66c-1 8-8 14-16 14l-64 0c-9 0-16-7-16-16 0-9 7-16 16-16z m446-80l-28-208-292 0-31 208z"/>
<glyph glyph-name="cart26" unicode="&#85;" d="M144 64c0 35-29 64-64 64-35 0-64-29-64-64 0-35 29-64 64-64 35 0 64 29 64 64z m-96 0c0 18 14 32 32 32 18 0 32-14 32-32 0-18-14-32-32-32-18 0-32 14-32 32z m384-64c35 0 64 29 64 64 0 35-29 64-64 64-35 0-64-29-64-64 0-35 29-64 64-64z m0 96c18 0 32-14 32-32 0-18-14-32-32-32-18 0-32 14-32 32 0 18 14 32 32 32z m64 96l-438 0 16 32 310 0c6 0 12 4 15 10l80 192c2 5 1 10-2 15-3 4-8 7-13 7l-392 0-43 58c-5 7-16 8-23 3-7-5-8-16-3-23l45-59 0-183-30-61c-3-5-3-11 0-15 3-5 8-8 14-8l464 0c9 0 16 7 16 16 0 9-7 16-16 16z m-123 64l-293 0 0 160 360 0z"/>
<glyph glyph-name="heart3" unicode="&#86;" d="M365 512c-42 0-81-18-109-49-28 31-67 49-109 49-81 0-147-67-147-149 0-138 236-335 246-343 3-3 6-4 10-4 4 0 7 1 10 4 10 8 246 205 246 343 0 82-66 149-147 149z m-109-459c-45 39-224 202-224 310 0 65 52 117 115 117 38 0 74-19 96-52 6-9 20-9 26 0 22 33 58 52 96 52 63 0 115-52 115-117 0-108-179-271-224-310z"/>
<glyph glyph-name="comment" unicode="&#87;" d="M462 306c1 7 2 15 2 22 0 101-104 184-232 184-128 0-232-83-232-184 0-41 17-80 48-112l0-104c0-6 3-11 8-14 2-1 5-2 8-2 2 0 5 1 7 2l92 46c31-48 95-80 165-80 18 0 35 2 52 6l60-36c2-1 5-2 8-2 3 0 5 1 8 2 5 3 8 8 8 14l0 63c31 26 48 61 48 97 0 37-18 72-50 98z m-387-72c-28 27-43 60-43 94 0 84 90 152 200 152 110 0 200-68 200-152 0-8-1-16-3-24 0 0 0 0 0 0-15-73-98-128-197-128-18 0-37 2-56 6-3 1-7 0-10-1l-86-43 0 85c0 4-2 8-5 11z m363-103c-4-3-6-8-6-13l0-42-41 25c-4 2-8 3-12 2-17-5-34-7-51-7-51 0-98 19-125 50 9-1 19-2 29-2 103 0 191 54 221 128 17-19 27-41 27-64 0-29-15-56-42-77z"/>
<glyph glyph-name="user1" unicode="&#88;" d="M496 74c0 29-16 56-42 70l-100 55c28 26 46 64 46 105l0 64c0 79-65 144-144 144-79 0-144-65-144-144l0-64c0-41 18-79 46-105l-100-55c-26-14-42-41-42-70l0-74 480 0z m-352 230l0 64c0 62 50 112 112 112 62 0 112-50 112-112l0-64c0-62-50-112-112-112-62 0-112 50-112 112z m320-272l-416 0 0 42c0 18 10 34 25 42l113 62c21-11 45-18 70-18 25 0 49 7 70 18l113-62c15-8 25-24 25-42z"/>
<glyph glyph-name="user2" unicode="&#89;" d="M496 16c0 98-58 125-123 146-32 10-46 39-52 64 38 22 63 63 63 110l0 48c0 71-57 128-128 128-71 0-128-57-128-128l0-48c0-47 25-88 63-110-6-25-20-54-52-64-65-21-123-48-123-146l0-16 480 0z m-336 320l0 48c0 53 43 96 96 96 53 0 96-43 96-96l0-48c0-53-43-96-96-96-53 0-96 43-96 96z m-111-304c4 58 36 79 100 100 44 14 63 52 71 81 12-3 24-5 36-5 12 0 24 2 35 5 9-29 28-67 72-81 64-21 96-42 100-100z"/>
<glyph glyph-name="user3" unicode="&#90;" d="M496 87c0 33-21 63-53 75-38 14-101 30-187 30-86 0-149-16-187-30-32-12-53-42-53-75l0-87 480 0z m-32-55l-416 0 0 55c0 20 13 38 32 45 35 13 95 28 176 28 81 0 141-15 176-28 19-7 32-25 32-45z m-208 192c71 0 128 57 128 128l0 32c0 71-57 128-128 128-71 0-128-57-128-128l0-32c0-71 57-128 128-128z m-96 160c0 53 43 96 96 96 53 0 96-43 96-96l0-32c0-53-43-96-96-96-53 0-96 43-96 96z"/>
<glyph glyph-name="user4" unicode="&#48;" d="M256 0c122 0 195 32 198 33l10 5 0 10c0 88-72 160-160 160l-96 0c-88 0-160-72-160-160l0-10 10-5c3-1 76-33 198-33z m-48 176l96 0c67 0 122-52 128-117-24-8-86-27-176-27-90 0-152 19-176 27 6 65 61 117 128 117z m48 64c73 0 128 76 128 144 0 71-57 128-128 128-71 0-128-57-128-128 0-68 55-144 128-144z m0 240c53 0 96-43 96-96 0-52-42-112-96-112-54 0-96 60-96 112 0 53 43 96 96 96z"/>
<glyph glyph-name="user5" unicode="&#49;" d="M48 16c0 115 93 208 208 208 115 0 208-93 208-208l0-16 32 0 0 16c0 107-70 197-167 228 43 26 71 71 71 124 0 79-65 144-144 144-79 0-144-65-144-144 0-53 28-98 71-124-97-31-167-121-167-228l0-16 32 0z m96 352c0 62 50 112 112 112 62 0 112-50 112-112 0-62-50-112-112-112-62 0-112 50-112 112z"/>
<glyph glyph-name="user6" unicode="&#50;" d="M51 145c32 14 88 31 173 31 16 0 32-1 47-2l16-1 2 32-16 1c-16 1-32 2-49 2-90 0-151-19-186-34-23-10-38-33-38-59l0-99 288 0 0 32-256 0 0 67c0 13 7 25 19 30z m173 367c-71 0-128-57-128-128 0-68 55-144 128-144 73 0 128 76 128 144 0 71-57 128-128 128z m0-240c-54 0-96 60-96 112 0 53 43 96 96 96 53 0 96-43 96-96 0-52-42-112-96-112z m256-89l-64-64-64 64-23-23 64-64-64-64 23-23 64 64 64-64 23 23-64 64 64 64z"/>
<glyph glyph-name="user7" unicode="&#51;" d="M224 48l-192 0 0 67c0 13 7 25 19 30 32 14 88 31 173 31 22 0 42-1 62-3l16-2 4 32-16 2c-21 2-43 3-66 3-90 0-151-19-186-34-23-10-38-33-38-59l0-99 224 0z m0 192c73 0 128 76 128 144 0 71-57 128-128 128-71 0-128-57-128-128 0-68 55-144 128-144z m0 240c53 0 96-43 96-96 0-52-42-112-96-112-54 0-96 60-96 112 0 53 43 96 96 96z m48-480l71 0 160 160-71 71-160-160z m32 57l128 128 25-25-128-128-25 0z"/>
<glyph glyph-name="user8" unicode="&#52;" d="M304 48l-272 0 0 67c0 13 7 25 19 30 32 14 88 31 173 31 5 0 11 0 16 0l16-1 0 32-16 1c-5 0-10 0-16 0-90 0-151-19-186-34-23-10-38-33-38-59l0-99 304 0z m-80 192c73 0 128 76 128 144 0 71-57 128-128 128-71 0-128-57-128-128 0-68 55-144 128-144z m0 240c53 0 96-43 96-96 0-52-42-112-96-112-54 0-96 60-96 112 0 53 43 96 96 96z m84-376l92-95 92 95c27 28 27 72 0 99-14 15-34 23-55 21-14-2-27-7-37-16-10 9-23 14-37 16-20 2-41-6-55-21-27-27-27-71 0-99z m23 77c7 7 16 11 25 11 1 0 3 0 4 0 11-1 20-7 27-17l13-21 13 21c7 10 16 16 27 17 11 1 21-3 29-11 15-15 15-39 0-54l-69-72-69 72c-15 15-15 39 0 54z"/>
<glyph glyph-name="user9" unicode="&#53;" d="M320 48l-288 0 0 67c0 13 7 25 19 30 32 14 88 31 173 31 11 0 21 0 31-1l16-1 2 32-16 1c-11 1-22 1-33 1-90 0-151-19-186-34-23-10-38-33-38-59l0-99 320 0z m-224 336c0-68 55-144 128-144 73 0 128 76 128 144 0 71-57 128-128 128-71 0-128-57-128-128z m224 0c0-52-42-112-96-112-54 0-96 60-96 112 0 53 43 96 96 96 53 0 96-43 96-96z m112-224c0-9-7-16-16-16-9 0-16 7-16 16 0 9 7 16 16 16 9 0 16-7 16-16z m-16 96c-53 0-96-43-96-96 0-54 76-131 85-139l11-11 11 11c9 8 85 85 85 139 0 53-43 96-96 96z m0-201c-28 31-64 78-64 105 0 35 29 64 64 64 35 0 64-29 64-64 0-27-36-74-64-105z"/>
<glyph glyph-name="user10" unicode="&#54;" d="M448 48l-416 0 0 67c0 13 7 25 19 30 32 14 88 31 173 31 27 0 53-2 78-5l16-2 4 31-16 2c-26 4-53 6-82 6-90 0-151-19-186-34-23-10-38-33-38-59l0-99 448 0z m-224 192c73 0 128 76 128 144 0 71-57 128-128 128-71 0-128-57-128-128 0-68 55-144 128-144z m0 240c53 0 96-43 96-96 0-52-42-112-96-112-54 0-96 60-96 112 0 53 43 96 96 96z m128-320l160 0 0-32-160 0z"/>
<glyph glyph-name="user11" unicode="&#55;" d="M288 48l-256 0 0 67c0 13 7 25 19 30 32 14 88 31 173 31l16 0 0 32-16 0c-90 0-151-19-186-34-23-10-38-33-38-59l0-99 288 0z m-64 192c73 0 128 76 128 144 0 71-57 128-128 128-71 0-128-57-128-128 0-68 55-144 128-144z m0 240c53 0 96-43 96-96 0-52-42-112-96-112-54 0-96 60-96 112 0 53 43 96 96 96z m48-336c0-53 43-96 96-96 21 0 40 7 56 18l61-61 22 22-61 61c11 16 18 35 18 56 0 53-43 96-96 96-53 0-96-43-96-96z m96 64c35 0 64-29 64-64 0-35-29-64-64-64-35 0-64 29-64 64 0 35 29 64 64 64z"/>
<glyph glyph-name="dress" unicode="&#56;" d="M377 279l0 35c5 12 17 45 15 87-1 28 15 83 15 84l4 11-72 16-3-10c0 0-3-15-15-30-16-19-37-29-65-29-65 0-80 56-80 59l-3 10-72-16 4-11c0-1 16-56 15-84-2-42 10-75 15-87l0-34-104-234 6-5c2-1 50-41 219-41 169 0 217 40 219 41l6 5z m-221 9l0 15 200 0 0-15z m2 199c3-7 8-18 16-28 14-17 39-38 82-38 43 0 68 21 82 38 8 10 13 21 16 28l30-7c-5-19-14-56-13-80 1-36-8-64-13-76l-204 0c-5 12-14 40-12 76 1 24-9 61-14 80z m261-448c-52-15-117-18-163-18-46 0-111 3-163 18-18 6-29 11-36 14l96 214 39 0-21-93 21-4 22 97 83 0 22-97 21 4-21 93 40 0 96-214c-7-3-18-8-36-14z"/>
<glyph glyph-name="pumps" unicode="&#57;" d="M79 10l-31 0c-4 0-7 3-8 7l-4 33-33 274c0 1-6 45 0 81 7 42 45 90 48 94 0 1 1 1 1 1 0 0 0 1 1 1 1 1 3 1 5 1 0 0 1 0 1 0 1 0 3-1 5-3 3-4 210-270 255-308 42-36 87-34 88-34 14 1 84 4 99-24 5-12 7-26 5-43-1-17-9-41-26-50-35-20-79-30-132-30-80 0-96 2-130 65 0 0 0 1 0 1-6 11-11 21-17 32-24 47-46 88-72 116-11 13-23 22-35 29-4 2-7 1-8 0-1 0-4-3-4-7l0-228c0-5-4-8-8-8z m-23 16l15 0 0 17-18 0z m195 34c22-34 39-34 102-34 50 0 91 9 124 28 7 4 12 13 15 23-26-12-84-34-139-34-48 0-81 9-102 17z m-14 25c7-5 43-26 116-26 60 0 126 29 143 37 0 12-1 22-5 29-7 14-49 17-79 16-4-5-11-13-25-17-22-6-49 2-80 21-68 43-217 282-250 335-12-16-34-50-38-77-6-35 0-77 0-77l32-267 20 0 0 187c0 9 4 17 12 21 7 5 16 5 23 0 14-7 27-18 40-32 28-30 49-72 75-120 5-10 10-20 16-30z m-84 275c56-83 124-177 162-201 28-17 51-24 68-19 2 1 3 1 5 2-20 3-50 11-80 37-25 21-94 105-155 181z"/>
<glyph glyph-name="tshirt" unicode="&#33;" d="M451 463l-57 0 0 40c0 3-1 6-4 7-2 1-6 2-6 2l-256 0c0 0-4-1-6-2-3-1-4-4-4-7l0-40-57 0c-5 0-10-4-10-9l0-445c0-5 5-9 10-9l390 0c5 0 10 4 10 9l0 445c0 5-5 9-10 9z m-195 7l-72 24 144 0z m118 20l0-50-71-39-33 55z m-236 0l104-34-33-55-71 39z m-67-163l89 0 0-23-89 0z m0-41l99 0c6 0 10 4 10 9l0 41c0 5-4 9-10 9l-99 0 0 100 47 0 0-10c0-3 2-6 5-8l85-46c2-1 3-2 5-2 1 0 2 1 3 1 3 0 5 2 6 4l24 41 0-407-175 0z m195-268l0 407 24-41c1-2 3-4 6-4 1 0 2-1 3-1 2 0 3 1 5 2l85 46c3 2 5 5 5 8l0 10 47 0 0-100-99 0c-6 0-10-4-10-9l0-41c0-5 4-9 10-9l99 0 0-268z m175 286l-89 0 0 23 89 0z"/>
<glyph glyph-name="diamon" unicode="&#34;" d="M511 402l-71 106c-2 3-4 4-7 4l-353 0c-3 0-6-1-8-4l-71-106c-1-3-1-7 0-10l247-388c2-2 5-4 8-4 3 0 6 2 7 4l247 388c2 3 2 7 1 10z m-251-9l128 0-128-359z m0 9l0 92 165 0-33-92z m-8 0l-132 0-33 92 165 0z m0-9l0-359-128 359z m-20-330l-210 330 92 0z m166 330l92 0-210-330z m92 9l-89 0 31 86z m-410 86l31-86-88 0z"/>
<glyph glyph-name="key" unicode="&#35;" d="M509 179l-64-131c-4-7-11-12-19-12l-4 0c1-1 1-2 1-3 0-3-2-6-6-6l-28 0c-4 0-6 3-6 6 0 1 0 2 1 3l-257 0c1-1 1-2 1-3 0-3-3-6-6-6l-28 0c-4 0-6 3-6 6 0 1 0 2 0 3l-3 0c-8 0-16 5-19 12l-64 131c-3 5-3 12 0 18l64 130c3 8 11 12 19 12l18 0c-1 3-2 6-2 10 0 12 10 22 22 22 12 0 22-10 22-22 0-3-3-6-6-6-3 0-6 3-6 6 0 5-5 10-10 10-6 0-10-5-10-10 0-5 4-10 10-10l54 0c6 0 10 5 10 10 0 5-4 9-8 10l3-7c1-3-1-6-4-8 0 0-1 0-2 0-2 0-5 1-5 3l-3 6c0-1-1-3-1-4 0-3-2-6-6-6-3 0-6 3-6 6 0 7 3 12 8 16l-4 9c-2 0-4 2-6 4-3 3-4 7-4 11 3 26 15 50 34 68 20 18 46 28 72 28 27 0 53-10 72-28 20-18 32-42 34-68 1-4-1-8-3-11-2-2-4-4-7-4l-3-9c5-4 7-9 7-16 0-3-2-6-5-6-4 0-6 3-6 6 0 1-1 3-1 4l-3-6c-1-2-3-3-5-3-1 0-2 0-2 0-4 2-5 5-4 8l3 7c-5-1-8-5-8-10 0-5 4-10 10-10l54 0c5 0 10 5 10 10 0 5-5 10-10 10-6 0-10-5-10-10 0-3-3-6-6-6-3 0-6 3-6 6 0 12 10 22 22 22 12 0 22-10 22-22 0-4-1-7-3-10l19 0c8 0 15-4 19-12l64-130c3-6 3-13 0-18z m-164 208c0-1 1-2 2-2 1 0 3 2 3 2-3 24-13 45-31 61-17 16-40 25-64 25-23 0-46-9-63-25-18-16-29-37-31-61 0 0 1-1 1-1 0-1 1-1 2-1 1 0 2 1 2 2 2 22 12 42 29 57 16 16 38 24 60 24 23 0 45-8 61-24 17-15 27-35 29-57z m-11-16c1 0 2 0 3-1l2 5c-3 3-6 6-6 11-2 19-11 37-25 50-14 13-33 20-53 20-19 0-38-7-52-20-15-13-23-31-25-50-1-5-3-8-6-11l2-5c1 1 2 1 3 1 12 0 22-10 22-22 0-4-1-7-2-10l15 0 0 4c0 4 3 6 6 6l72 0c3 0 6-2 6-6l0-4 18 0c-1 3-2 6-2 10 0 12 9 22 22 22z m-46-167l0 11-68 0 0-11z m-28-12l0-31c16 2 29 15 31 31z m-6 71c12 0 22-5 30-13l0 88-60 0 0-88c8 8 18 13 30 13z m-29-36l58 0c-3 14-15 24-29 24-14 0-26-10-29-24z m23-35l-31 0c2-16 15-29 31-31z m251 0l-65 130c-1 3-4 5-8 5l-130 0 0-100c2-1 4-3 4-6l0-18c2 0 4-3 4-5 0-27-23-49-50-49-27 0-50 22-50 49 0 2 2 5 4 5l0 18c0 3 2 5 4 6l0 100-127 0c-4 0-7-2-8-5l-65-130c-1-3-1-6 0-8l65-131c1-3 4-5 8-5l341 0c4 0 7 2 8 5l65 131c1 2 1 5 0 8z m-23-10c-4 0-6 2-6 6 0 3 2 6 6 6 3 0 6-3 6-6 0-4-3-6-6-6z m-10 23c-3 0-5 2-6 4-1 3 0 6 3 8 3 1 7 0 8-3 1-3 0-6-3-8-1 0-1-1-2-1z m-12-70c-1 0-2 0-2 0-3 2-5 5-3 8 1 3 5 5 8 3 3-1 4-5 3-8-1-2-4-3-6-3z m0 94c-2 0-4 1-5 3-2 3 0 7 3 8 3 1 6 0 8-3 1-3 0-6-3-8-1 0-2 0-3 0z m-11-117c-1 0-2 0-3 0-3 2-4 5-3 8 2 3 5 4 8 3 3-2 5-5 3-8-1-2-3-3-5-3z m0 140c-2 0-5 1-6 3-1 3 0 7 3 8 3 2 7 0 8-2 2-3 0-7-3-8 0-1-1-1-2-1z m-12-164c-1 0-1 1-2 1-3 1-4 5-3 8 1 3 5 4 8 3 3-2 4-5 3-8-1-2-3-4-6-4z m0 187c-2 0-4 1-5 4-1 3 0 6 3 7 3 2 6 1 8-2 1-3 0-7-3-8-1-1-2-1-3-1z m-11 23c-2 0-3 1-4 2-1 1-2 3-2 4 0 2 1 3 2 5 1 1 2 1 4 1 1 0 3 0 4-1 1-2 2-3 2-5 0-1-1-3-2-4-1-1-3-2-4-2z m0-221c1 0 3-1 4-2 1-1 2-2 2-4 0-2-1-3-2-4-1-1-3-2-4-2-2 0-3 1-4 2-1 1-2 2-2 4 0 2 1 3 2 4 1 1 2 2 4 2z m48 92c3-1 4-5 3-8-1-2-3-3-5-3-1 0-2 0-3 1-3 1-4 5-3 8 2 3 5 4 8 2z m-377-104c-2 0-3 1-4 2-1 1-2 2-2 4 0 2 1 3 2 4 1 1 2 2 4 2 2 0 3-1 4-2 1-1 2-2 2-4 0-2-1-3-2-4-1-1-2-2-4-2z m0 233c-2 0-3 1-4 2-1 1-2 3-2 4 0 2 1 3 2 5 1 1 2 1 4 1 2 0 3 0 4-1 1-2 2-3 2-5 0-1-1-3-2-4-1-1-2-2-4-2z m-6-19c-1-3-3-4-5-4-1 0-2 0-3 1-3 1-4 5-3 8 2 3 5 4 8 2 3-1 4-4 3-7z m-17-167c-2 0-4 1-5 3-2 3 0 6 2 8 3 1 7 0 8-3 2-3 1-6-2-8-1 0-2 0-3 0z m0 140c-1 0-2 0-3 1-2 1-4 5-2 8 1 2 5 4 8 2 3-1 4-5 2-8-1-2-3-3-5-3z m-11-117c-3 0-5 1-6 3-1 3 0 7 3 8 3 1 7 0 8-3 1-3 0-6-3-8-1 0-1 0-2 0z m0 94c-1 0-2 0-3 0-3 2-4 5-3 8 2 3 5 4 8 3 3-1 4-5 3-8-1-2-3-3-5-3z m-12-71c-2 0-4 1-5 3-2 3 0 7 3 8 3 2 6 1 8-2 1-3 0-7-3-8-1-1-2-1-3-1z m0 47c-1 0-2 1-2 1-3 2-5 5-3 8 1 3 5 4 8 3 3-2 4-5 3-8-1-2-4-4-6-4z m-10-23c-3 0-6 2-6 6 0 3 3 6 6 6 3 0 6-3 6-6 0-4-3-6-6-6z m50-85c1-3 0-7-3-8-1 0-2-1-2-1-3 0-5 2-6 4-1 3 0 6 3 8 3 1 6 0 8-3z m173 146c1-1 2-2 2-4 0-1-1-3-2-4-1-1-2-2-4-2-2 0-3 1-4 2-1 1-2 3-2 4 0 2 1 3 2 4 1 1 2 2 4 2 2 0 3-1 4-2z"/>
<glyph glyph-name="cart27" unicode="&#36;" d="M256 504c-49 0-88-39-88-88l0-16-96 0c-4 0-8-4-8-8l0-376c0-4 4-8 8-8l368 0c4 0 8 4 8 8l0 376c0 4-4 8-8 8l-96 0 0 16c0 49-39 88-88 88z m-72-88c0 40 32 72 72 72 40 0 72-32 72-72l0-16-144 0z m248-32l0-360-352 0 0 360 88 0 0-56c0-4 4-8 8-8 4 0 8 4 8 8l0 56 144 0 0-56c0-4 4-8 8-8 4 0 8 4 8 8l0 56z"/>
<glyph glyph-name="cart28" unicode="&#37;" d="M160 64c0-35-28-64-64-64-35 0-64 29-64 64 0 35 29 64 64 64 36 0 64-29 64-64z m320 0c0-35-28-64-64-64-35 0-64 29-64 64 0 35 29 64 64 64 36 0 64-29 64-64z m0 384l-352 0 0 32c0 18-14 32-32 32l-96 0 0-64 64 0 0-64 374 0-46-160-392 0 0-64 416 0c15 0 27 9 31 23l64 224c3 10-1 41-31 41z m-448-160l128 0 0-32-128 0z m32 64l128 0 0-32-128 0z"/>
<glyph glyph-name="menu3" unicode="&#38;" d="M32 416l448 0c18 0 32 14 32 32 0 18-14 32-32 32l-448 0c-18 0-32-14-32-32 0-18 14-32 32-32z m0-192l448 0c18 0 32 14 32 32 0 18-14 32-32 32l-448 0c-18 0-32-14-32-32 0-18 14-32 32-32z m0-192l256 0c18 0 32 14 32 32 0 18-14 32-32 32l-256 0c-18 0-32-14-32-32 0-18 14-32 32-32z"/>
<glyph glyph-name="user12" unicode="&#39;" d="M394 207c-37 13-59 27-69 38 36 23 59 62 59 107l0 32c0 71-57 128-128 128-71 0-128-57-128-128l0-32c0-45 23-84 59-107-10-11-32-25-69-38-51-17-86-65-86-119l0-88 448 0 0 88c0 54-35 102-86 119z m-202 177c0 35 29 64 64 64 35 0 64-29 64-64l0-32c0-35-29-64-64-64-35 0-64 29-64 64z m224-320l-320 0 0 24c0 26 17 50 43 58 59 20 96 46 110 78l14 0c14-32 51-58 110-78 26-8 43-32 43-58z"/>
<glyph glyph-name="search10" unicode="&#40;" d="M224 64c-124 0-224 100-224 224 0 124 100 224 224 224 124 0 224-100 224-224 0-124-100-224-224-224z m0 384c-88 0-160-72-160-160 0-88 72-160 160-160 88 0 160 72 160 160 0 88-72 160-160 160z m279-393l-77 76c-13-17-28-32-45-45l76-77c7-6 15-9 23-9 8 0 16 3 23 9 12 13 12 33 0 46z"/>
<glyph glyph-name="star" unicode="&#41;" d="M480 312l-171 0-53 168-52-168-172 0 139-104-55-176 140 112 140-112-55 176z"/>
<glyph glyph-name="down" unicode="&#42;" d="M256 496c-9 0-16-7-16-16l0-409-117 116c-6 7-16 7-22 0-7-6-7-16 0-22l144-144c1-2 3-3 5-4 2-1 4-1 6-1 2 0 4 0 6 1 2 1 4 2 5 4l144 144c7 6 7 16 0 22-6 7-16 7-22 0l-117-116 0 409c0 9-7 16-16 16z"/>
<glyph glyph-name="left" unicode="&#43;" d="M496 256c0 9-7 16-16 16l-409 0 116 117c7 6 7 16 0 22-6 7-16 7-22 0l-144-144c-2-1-3-3-4-5-1-4-1-8 0-12 1-2 2-4 4-5l144-144c3-3 7-5 11-5 4 0 8 2 11 5 7 6 7 16 0 22l-116 117 409 0c9 0 16 7 16 16z"/>
<glyph glyph-name="right" unicode="&#44;" d="M16 256c0-9 7-16 16-16l409 0-116-117c-7-6-7-16 0-22 3-3 7-5 11-5 4 0 8 2 11 5l144 144c2 1 3 3 4 5 1 4 1 8 0 12-1 2-2 4-4 5l-144 144c-6 7-16 7-22 0-7-6-7-16 0-22l116-117-409 0c-9 0-16-7-16-16z"/>
<glyph glyph-name="up" unicode="&#45;" d="M256 16c9 0 16 7 16 16l0 409 117-116c3-3 7-5 11-5 4 0 8 2 11 5 7 6 7 16 0 22l-144 144c-1 2-3 3-5 4-4 1-8 1-12 0-2-1-4-2-5-4l-144-144c-7-6-7-16 0-22 6-7 16-7 22 0l117 116 0-409c0-9 7-16 16-16z"/>
<glyph glyph-name="check" unicode="&#46;" d="M181 101c3-3 7-5 11-5 4 0 8 2 11 5l288 288c7 6 7 16 0 22-6 7-16 7-22 0l-277-276-149 148c-6 7-16 7-22 0-7-6-7-16 0-22z"/>
<glyph glyph-name="android-add" unicode="&#47;" d="M416 235l-139 0 0-139-42 0 0 139-139 0 0 42 139 0 0 139 42 0 0-139 139 0z"/>
<glyph glyph-name="plus-circled" unicode="&#58;" d="M256 480c-124 0-224-100-224-224 0-124 100-224 224-224 124 0 224 100 224 224 0 124-100 224-224 224z m128-240l-112 0 0-112-32 0 0 112-112 0 0 32 112 0 0 112 32 0 0-112 112 0z"/>
<glyph glyph-name="zoom-in" unicode="&#59;" d="M17 60l30-30 94 94-30 31z m284 431c-104 0-189-85-189-190 0-41 13-78 35-109l36-38c32-26 73-42 118-42 105 0 190 85 190 189 0 105-85 190-190 190z m0-336c-81 0-146 65-146 146 0 81 65 147 146 147 81 0 147-66 147-147 0-81-66-146-147-146z m19 208l-42 0 0-43-43 0 0-43 43 0 0-42 42 0 0 42 43 0 0 43-43 0z"/>
<glyph glyph-name="menu5" unicode="&#60;" d="M32 240l448 0c9 0 16 7 16 16 0 9-7 16-16 16l-448 0c-9 0-16-7-16-16 0-9 7-16 16-16z m224 176c-9 0-16-7-16-16 0-9 7-16 16-16l224 0c9 0 16 7 16 16 0 9-7 16-16 16z m-224-320l224 0c9 0 16 7 16 16 0 9-7 16-16 16l-224 0c-9 0-16-7-16-16 0-9 7-16 16-16z"/>
<glyph glyph-name="menu4" unicode="&#61;" d="M32 240l448 0c9 0 16 7 16 16 0 9-7 16-16 16l-448 0c-9 0-16-7-16-16 0-9 7-16 16-16z m0 144l448 0c9 0 16 7 16 16 0 9-7 16-16 16l-448 0c-9 0-16-7-16-16 0-9 7-16 16-16z m448-256l-224 0c-9 0-16-7-16-16 0-9 7-16 16-16l224 0c9 0 16 7 16 16 0 9-7 16-16 16z"/>
<glyph glyph-name="format-video" unicode="&#62;" d="M69 507l-5-5 0-492 5-5c4-4 7-5 12-4 3 0 88 52 201 122 155 97 195 123 197 128 4 12 8 9-198 138-122 76-196 122-200 123-5 0-8-1-12-5m196-145c91-57 166-105 166-106 0-2-331-210-334-210-1 0-1 94-1 210 0 115 0 210 1 210 1 0 76-47 168-104"/>
<glyph glyph-name="format-image" unicode="&#63;" d="M133 507c-6-6-6-15 0-22l5-5 236 0 5 5c6 7 6 16 0 22l-5 5-236 0-5-5m-96-96l-5-5 0-363 5-6 5-5 428 0 5 5 5 6 0 363-5 5-5 5-428 0-5-5m411-187l0-160-384 0 0 320 384 0 0-160m-301 93c-20-9-25-35-9-51 22-23 59-3 53 29-3 19-26 30-44 22m55-109c-54-44-99-82-101-84-2-2-4-6-4-10-1-6 0-8 4-13l5-5 148 0c127 0 149 0 154 3 6 3 9 9 7 16-1 7-97 165-101 169-10 9-10 9-112-76m134-21l36-59-107 0c-71 0-107 1-106 2 7 7 138 116 140 116 1 0 18-27 37-59"/>
<glyph glyph-name="format-gallery" unicode="&#64;" d="M5 507l-5-5 0-299 5-6 5-5 492 0 5 5 5 6 0 299-5 5-5 5-492 0-5-5m475-155l0-128-448 0 0 256 448 0 0-128m-239-226c-18-5-35-18-43-36-4-7-5-12-5-26 0-20 4-31 18-45 23-22 56-25 82-7 41 30 34 91-14 111-9 4-28 5-38 3m-158-33c-20-9-25-35-9-51 22-23 59-3 53 29-3 19-26 30-44 22m186 0c20-10 25-35 9-51-8-8-17-11-29-9-10 2-22 14-24 24-5 26 21 47 44 36m134 0c-20-9-25-35-9-51 22-23 59-3 53 29-3 19-26 30-44 22"/>
<glyph glyph-name="format-music" unicode="&#91;" d="M145 509c-8-2-23-7-33-12-16-8-22-12-37-28-16-15-20-21-28-37-14-29-15-38-15-123l0-74-7-9c-23-33-31-81-20-120 11-40 45-79 84-95 17-8 39-11 67-11 26 0 26 0 31 5l5 6 0 267-5 5c-5 5-6 5-31 5-33 0-52-4-74-15l-18-8 0 57c0 65 2 76 13 98 15 27 41 49 71 56 15 4 21 4 113 4 97-1 98-1 111-6 27-10 51-31 64-57 10-20 12-32 12-95l0-57-17 8c-23 11-42 15-75 15-25 0-26 0-31-5l-5-5 0-267 5-6c5-5 5-5 31-5 28 0 50 3 67 11 39 16 73 55 84 95 5 19 6 47 2 66-3 18-15 44-24 56l-5 7 0 73c0 86-1 94-15 124-8 16-12 22-28 37-15 16-21 20-37 28-31 15-36 15-145 15-76 0-99-1-110-3m15-365l0-112-14 0c-31 0-59 12-81 33-43 44-44 112-1 156 21 23 49 35 81 35l15 0 0-112m244 106c51-17 82-69 74-123-6-41-37-77-78-90-5-2-18-4-28-4l-20-2 0 226 20-1c12-1 24-3 32-6"/>
<glyph glyph-name="format-link" unicode="&#93;" d="M341 493c-17-4-31-9-43-18-6-4-31-27-56-52-41-41-46-48-53-61-4-8-8-20-10-27-4-14-4-44-1-59 5-23 26-59 39-66 7-3 14-1 19 4 6 7 5 14-6 27-5 7-12 18-15 25-6 12-6 14-6 38l0 25 8 16c7 15 11 20 51 59 37 37 45 44 56 50 38 18 82 11 111-19 25-25 34-56 26-91-5-22-11-30-49-68-33-32-36-36-36-42 0-9 7-16 16-16 6 0 10 4 45 38 34 35 39 41 46 54 24 50 14 109-25 148-31 31-75 44-117 35m-64-194c-8-8-7-14 5-28 5-7 12-18 15-25 6-12 6-14 6-38 0-25 0-25-8-41-7-15-10-19-51-59-37-37-45-44-56-50-39-18-81-11-111 19-25 25-34 56-26 91 5 22 11 30 49 68 34 33 36 36 36 42 0 9-7 16-17 16-5 0-11-5-43-38-39-39-46-48-54-72-6-18-7-47-3-66 10-50 49-89 99-99 19-4 48-3 66 3 25 8 36 17 85 66 44 45 47 48 55 64 9 21 12 33 12 56 0 35-11 63-34 87-10 11-17 12-25 4"/>
<glyph glyph-name="format-quote" unicode="&#94;" d="M136 425c50 0 81-25 94-75 13-48 6-99-21-154-27-58-65-93-114-105-11-3-22-4-34-4 0 0 0 36 0 36 38 0 69 18 93 55 19 30 23 54 13 75-5 12-16 18-31 18-21 0-38 8-53 23-15 15-22 33-22 54 0 21 7 39 22 54 15 15 32 23 53 23m215 0c50 0 81-25 94-75 13-48 6-99-21-154-27-58-65-93-114-105-11-3-22-4-34-4 0 0 0 36 0 36 38 0 69 18 93 55 19 30 23 54 13 75-5 12-16 18-31 18-21 0-38 8-53 23-15 15-22 33-22 54 0 21 7 39 22 54 15 15 32 23 53 23"/>
<glyph glyph-name="view-1" unicode="&#95;" d="M233 381c-56-10-104-38-151-86-12-12-26-28-32-36l-10-13 7-10c9-13 37-44 51-57 34-30 75-54 111-64 81-23 164 3 237 76 20 19 46 50 46 54 0 9-54 66-83 88-24 18-64 38-90 44-25 7-64 8-86 4m65-26c57-27 57-107 0-134-10-5-13-6-32-6-18 0-22 1-30 5-24 12-38 31-42 54-6 35 10 67 43 81 14 6 16 7 33 6 12 0 18-2 28-6m-112-15c-7-10-12-22-14-38-9-60 40-113 101-109 29 1 53 14 70 37 15 20 18 31 18 59l0 25-8 16-9 16 18-9c30-16 73-51 97-82l8-9-6-8c-3-4-13-16-23-26-90-90-186-108-280-51-23 14-53 40-74 63l-18 21 5 6c9 14 45 48 65 63 15 12 49 32 54 32 0 0-2-3-4-6"/>
<glyph glyph-name="view" unicode="&#96;" d="M245 404c-52-7-102-36-147-83-18-19-42-51-51-66l-6-10 5-8c18-31 63-81 95-106 21-16 56-33 78-39 24-7 71-7 95 0 21 5 45 17 68 32 33 22 81 74 104 111l6 11-9 14c-35 55-88 104-136 127-30 14-73 21-102 17m64-26c21-6 48-19 68-34 28-21 64-59 85-91l6-8-7-9c-22-33-60-73-88-92-71-51-148-49-218 4-28 21-64 59-84 89l-5 9 11 16c36 50 85 92 126 109 35 14 72 16 106 7m-58-60c-12-2-27-10-36-19-30-29-31-74-2-105 41-43 114-22 126 36 11 53-34 99-88 88m38-25c28-13 39-46 24-73-26-48-99-29-99 25 0 38 40 64 75 48"/>
<glyph glyph-name="cart29" unicode="&#123;" d="M22 480l0-10 63-1 0-117c1-64 1-136 1-160l0-42 426 0 0 20-406 0 0 64 318 0 2 7c1 5 11 46 23 93 12 47 22 87 22 88 1 4-9 4-181 4l-183 1-1 63-84 0 0-10m422-76c0-1-8-35-18-75l-18-73-302 0 0 74c0 40 1 74 1 75 3 2 337 1 337-1m-327-303c-19-9-29-23-31-43-3-50 55-77 90-42 16 16 20 35 12 57-10 27-44 41-71 28m320 0c-19-9-29-23-31-43-3-50 55-77 90-42 16 16 20 35 12 57-10 27-44 41-71 28m-282-21c3-2 8-6 11-10 4-6 4-9 4-18-2-19-14-30-32-30-28 0-41 34-21 54 10 10 24 12 38 4m320 0c3-2 8-6 11-10 4-6 4-9 4-18-2-19-14-30-32-30-28 0-41 34-21 54 10 10 24 12 38 4"/>
<glyph glyph-name="heart4" unicode="&#124;" d="M128 487c-7-2-21-7-30-11-22-11-49-38-61-59-39-76-4-164 113-288 29-32 67-68 100-97 14-13 17-14 20-12 29 25 75 69 112 107 51 54 86 101 108 145 14 29 20 48 21 71 5 61-33 119-93 141-14 4-18 5-43 5-25 0-30-1-44-6-21-7-39-17-53-31l-12-12-8 9c-13 14-36 28-55 34-20 7-55 9-75 4m49-19c32-5 62-25 83-55 3-5 6-9 7-9 0 0 4 5 8 10 24 36 59 55 99 55 33 0 58-10 82-35 25-25 35-51 33-87-1-24-5-40-19-67-21-42-53-84-106-141-21-23-69-69-88-85l-9-8-12 10c-63 55-133 131-168 182-39 60-51 104-40 146 10 34 40 67 73 78 21 8 35 9 57 6"/>
<glyph glyph-name="compare" unicode="&#125;" d="M131 339l-7-8 37-37 38-38-167 0 0-22 165 0-74-74 8-7 7-8 51 51 50 50-50 50-50 50-8-7m213-44l-50-50 50-50 50-50 7 8 8 7-74 74 166 1 1 21-167 0 38 38 37 37-15 15-51-51"/>
<glyph glyph-name="check-circle1" unicode="&#126;" d="M211 205l-51 51-32-32 83-80 173 192-32 32z m45 307c-141 0-256-115-256-256 0-141 115-256 256-256 141 0 256 115 256 256 0 141-115 256-256 256z m0-472c-119 0-216 97-216 216 0 119 97 216 216 216 119 0 216-97 216-216 0-119-97-216-216-216z"/>
<glyph glyph-name="check-circle2" unicode="&#92;" d="M469 297c-12 0-21-9-21-20l0-21c0-112-91-203-203-203l0 0c-112 0-204 91-204 203 0 112 91 203 204 203l0 0c28 0 57-6 83-17 10-5 22 0 27 10 5 11 0 23-11 28-31 14-65 21-99 21l0 0c-99 0-188-60-226-151-38-92-17-197 53-267 45-46 108-72 173-72l0 0c135 0 245 110 245 245l0 21c0 11-10 20-21 20z m37 175c-8 8-21 8-29 0l-232-232-53 53c-8 8-21 8-29 0-8-8-8-21 0-29l67-68c8-8 21-8 29 0l247 247c8 8 8 21 0 29z"/>
<glyph glyph-name="cart27-1" unicode="&#57344;" d="M504 511l-72 0c-4 0-6-2-8-5l-30-114-386 0c-2 0-5-2-6-4-2-1-2-4-2-6l40-200c1-4 4-7 8-6l320 0 0-72-288 0c-3 0-6-2-7-4l-18-32c-2-4-1-9 3-12 9-2 8-3 8-3 3 0 6 2 8 4l16 28 286 0c2 0 4 1 6 2 1 2 2 4 2 6l0 90 8 66c-1 4-2 8-7 9-5 1-8-2-9-7l-7-59-315 0-36 184 373 0-17-142c-1-4 2-8 7-9l1 0c4 0 7 3 8 7l18 150 30 114 66 0c2-1 4 0 6 2 1 1 2 3 2 6 0 2-1 4-2 5-2 2-4 3-6 2z m-354-437c-20 0-36-17-36-37 0-20 16-37 36-37 20 0 37 17 37 37 0 20-17 37-37 37z m0-57c-11 0-20 10-20 21 0 12 9 21 20 21 12 0 21-9 21-21 0-11-9-21-21-21z m172 57c-20 0-37-17-37-37 0-20 17-37 37-37 20 0 36 17 36 37 0 10-3 19-10 26-7 7-17 11-26 11z m0-57c-12 0-21 10-21 21 0 12 9 21 21 21 11 0 20-9 20-21 0-5-2-11-6-15-4-4-9-6-14-6z m46 327c0 2-1 4-2 5-2 2-4 3-6 3l-296 0c-4 0-8-4-8-8 0-5 4-8 8-8l296 0c2-1 4 0 6 2 1 1 2 3 2 6z m-8-40c0 2-1 4-2 5-2 2-4 3-6 3l-280 0c-4 0-8-4-8-8 0-5 4-8 8-8l280 0c2-1 4 0 6 2 1 1 2 3 2 6z m-8-40c0 2-1 4-2 5-2 2-4 3-6 3l-264 0c-4 0-8-4-8-8 0-5 4-8 8-8l264 0c2-1 4 0 6 2 1 1 2 3 2 6z m-264-32c-4 0-8-4-8-8 0-5 4-8 8-8l248 0c4 0 8 3 8 8 0 4-4 8-8 8z"/>
<glyph glyph-name="search-list" unicode="&#57345;" d="M32 312l144 0c4 0 8 4 8 8 0 4-4 8-8 8l-144 0c-4 0-8-4-8-8 0-4 4-8 8-8z m0-128l144 0c4 0 8 4 8 8 0 4-4 8-8 8l-144 0c-4 0-8-4-8-8 0-4 4-8 8-8z m0-128l304 0c4 0 8 4 8 8 0 4-4 8-8 8l-304 0c-4 0-8-4-8-8 0-4 4-8 8-8z m304 400l-304 0c-4 0-8-4-8-8 0-4 4-8 8-8l304 0c4 0 8 4 8 8 0 4-4 8-8 8z m0-96c-57 0-104-47-104-104 0-57 47-104 104-104 26 0 49 9 68 25l70-71c2-1 4-2 6-2 2 0 4 1 6 2 3 3 3 9 0 12l-71 70c16 19 25 42 25 68 0 57-47 104-104 104z m-88-104c0 49 39 88 88 88 49 0 88-39 88-88 0-49-39-88-88-88-49 0-88 39-88 88z"/>
</font>
</defs>
</svg>
